IPB

Здравствуйте, гость ( Вход | Регистрация )


Свадебный Портал
Все о свадьбе
Годовщины свадеб
Поздравления
Сценарий свадьбы
Выкуп невесты
Советы
Деньги
Букет невесты
Венчание
Девичник
Медовый месяц
Обручальные кольца
Первая брачная ночь
Подарки на свадьбу
Свадебные конкурсы
Свадебные приметы
Тосты на свадьбу

> 

Установите счетчик и ссылка на ваш сайт появится на нашем портале.

 
Reply to this topicStart new topic
> Digital Marketing Masterclass - 23 Courses in 1
yanfan001
сообщение 27.3.2020, 10:33
Сообщение #1


Опытный участник
***

Группа: Пользователи
Сообщений: 30 086
Регистрация: 16.1.2019
Пользователь №: 35 430



Изображение

Digital Marketing Masterclass - 23 Courses in 1
WEBRip | English | MP4 + PDF Guides | 1280 x 720 | AVC ~445 kbps | 30 fps
AAC | 192 Kbps | 48.0 KHz | 2 channels | ~32.5 hours | 10.3 GB
Genre: eLearning Video / Business, Sales, Marketing
Grow Your Business with Digital Marketing: Social Media Marketing, Facebook, Content, YouTube, Email Marketing, Websites

What you'll learn
You will learn how to use dozens of proven digital marketing strategies
You will improve your brand identity and grow your brand's audience
You will learn social media marketing using all of the most popular social media platforms to grow your business
You will grow your email list, website traffic, subscriber count, and social media following
You will see tangible results by taking action throughout the entire course
You will increase conversions and sales with real world techniques

Requirements
No prior marketing knowledge required
You should be ready to take action and see real results!

Description
You're looking for a complete digital marketing course to teach you everything you need to become a digital marketing expert, right?

You've found the right digital marketing course!

With the skills learned in our digital marketing course, you can:

GROW your own business

LAND a job in this hot marketing industry

HELP a client increase their business

We want to help you grow your business with social media marketing, content marketing, email marketing, and more!

We promise to do everything we can to help you with all of these digital marketing & social media marketing strategies:

BRANDING
WEBSITES
EMAIL MARKETING
BLOGGING
COPYWRITING
SEO (Search Engine Optimization)
YOUTUBE
VIDEO MARKETING
FACEBOOK PAGES
FACEBOOK GROUPS
FACEBOOK ADS
FACEBOOK FOR LOCAL BUSINESSES
GOOGLE ADS
GOOGLE ANALYTICS
TWITTER
INSTAGRAM
GOOGLE PLUS
PINTEREST
LINKEDIN
PERISCOPE
LIVE-STREAMING ON SOCIAL MEDIA
PODCASTING
QUORA

Most of the tools and strategies we recommend and teach you to use are completely free!

WHAT DO YOU GET WHEN YOU ENROLL IN THE DIGITAL MARKETING MASTERCLASS?

Lifetime access to the course and all updates

Personalized support and answers to your questions

Udemy certificate of completion

30-Day 100% money back guarantee - no questions asked!

DIGITAL MARKETING COURSE BONUSES?

Downloadable checklists to keep you on track

Downloadable guides to help you take action

Case Studies to show you behind the scenes of our strategies

WHO ARE YOUR INSTRUCTORS?

The cool thing about this course is that you two teachers! Phil Ebiner and Diego Davila have been using digital marketing to grow their own six-figure businesses.

With over 300,000 students combined in their Udemy courses, Phil and Diego knows what it takes to help absolute beginners learn complicated digital marketing skills. They've combined techniques and strategies taught in many of their other best selling courses, and put it all together with this complete digital marketing course.

GET READY TO TAKE ACTION

Throughout the entire course, you'll be taking action!

You'll learn the proper techniques and strategies for each section. Then you'll see how these strategies are used in the real world with case studies. Finally, you'll take action yourself, and see real results!

NOW IS THE TIME TO START USING DIGITAL MARKETING & SOCIAL MEDIA MARKETING TO GROW YOUR BUSINESS!

Whether you're completely brand new to all of these topics, or you use a few of them, now is the perfect time to take action.

Enroll now so that you can take advantage of the skills you learn to grow your business!

Who this course is for:
Entrepreneurs, business owners, bloggers, YouTubers, social media fans
Website owners who want to increase web traffic, conversions, and sales
Business owners who want to use digital marketing (social media, content marketing, YouTube, and many other strategies) to grow their business
Anyone wanting to do your own marketing - and not waste money

General
Complete name : Guru Home Study Course - Content Summit - Session 03-02.flv
Format : Flash Video
File size : 119 MiB
Duration : 35 min 12 s
Overall bit rate : 474 kb/s
Encoded date : 2009-02- 9 21:05:31

Video
Format : VP6
Codec ID : 4
Duration : 35 min 12 s
Bit rate : 300 kb/s
Width : 640 pixels
Height : 360 pixels
Display aspect ratio : 16:9
Frame rate mode : Constant
Frame rate : 30.000 FPS
Bit depth : 8 bits
Bits/(Pixel*Frame) : 0.043
Stream size : 75.5 MiB (63%)

Audio
Format : MPEG Audio
Format version : Version 1
Format profile : Layer 3
Codec ID : 2
Codec ID/Hint : MP3
Duration : 35 min 12 s
Bit rate mode : Constant
Bit rate : 128 kb/s
Channel(s) : 1 channel
Sampling rate : 44.1 kHz
Compression mode : Lossy
Stream size : 32.2 MiB (27%)
Writing library : LAME3.96.1

Download link:
Цитата
rapidgator_net:
https://rapidgator.net/file/a36d3108157fc6c...part01.rar.html
https://rapidgator.net/file/1f2d37c9365c1d8...part02.rar.html
https://rapidgator.net/file/68ac6eb5519e9bc...part03.rar.html
https://rapidgator.net/file/edaa1aa4f0e8a70...part04.rar.html
https://rapidgator.net/file/ac66c4688309e01...part05.rar.html
https://rapidgator.net/file/0245c7b584965d4...part06.rar.html
https://rapidgator.net/file/b2c5ea3aee2e401...part07.rar.html
https://rapidgator.net/file/8e91b393fdd74db...part08.rar.html
https://rapidgator.net/file/c8fd36bfee0bef7...part09.rar.html

nitroflare_com:
https://nitroflare.com/view/11480C5ABDA469E...in.1.part01.rar
https://nitroflare.com/view/8C5670CE5FCD0CD...in.1.part02.rar
https://nitroflare.com/view/FD6831C9740C430...in.1.part03.rar
https://nitroflare.com/view/FB80EF6D59B285D...in.1.part04.rar
https://nitroflare.com/view/6D3825F93D9C72B...in.1.part05.rar
https://nitroflare.com/view/A23F19E6E7BB5E6...in.1.part06.rar
https://nitroflare.com/view/960620C1184E459...in.1.part07.rar
https://nitroflare.com/view/B8F68DE50BB7B23...in.1.part08.rar
https://nitroflare.com/view/4903791F99C7351...in.1.part09.rar

uploadgig_com:
spamuploadgig.com/file/download/1de80d2...in.1.part01.rar
spamuploadgig.com/file/download/3F2A95c...in.1.part02.rar
spamuploadgig.com/file/download/1a8c027...in.1.part03.rar
spamuploadgig.com/file/download/324355c...in.1.part04.rar
spamuploadgig.com/file/download/e41666e...in.1.part05.rar
spamuploadgig.com/file/download/1e1043F...in.1.part06.rar
spamuploadgig.com/file/download/cE67b33...in.1.part07.rar
spamuploadgig.com/file/download/4755380...in.1.part08.rar
spamuploadgig.com/file/download/9076AAD...in.1.part09.rar


Links are Interchangeable - No Password - Single Extraction
User is online!Profile CardPM
Go to the top of the page
+Quote Post

Reply to this topicStart new topic

 

- Текстовая версия Сейчас: 10.4.2020, 10:38
.